Ffmpeg get video duration


ffmpeg get video duration 024000, but it doesn't give me confidence that for other audio files the durations reported could be wildly different. 500100, bitrate: 32415 kb/s Program 1 Metadata: service_name : Service01 service_provider: FFmpeg Stream #0:0[0x100]: Video: mpeg2video (Main) ([2][0][0][0] / 0x0002), yuv420p(tv), 1440x1080 [SAR 4:3 DAR 16:9], 30000 kb/s, 29. NET wrapper extracts information about media streams (mp4,avi,mov,mp3 files or URLs): video format, codec, duration, frame size, frame rate, tags, orientation. 265/HEVC well: crashed; so long time conversion… I've been following this answer to use ffmpeg to convert and play some of my Audible audio-books in LinuxMint. 21 thoughts on “ Webcam Streaming Video On Raspberry Pi via Browser ” Robert Mark 8th June 2018 at 12:38 am. As you can see, many users in some well-known question-and-answer sites ask how to cut video using FFmpeg. With FFmpeg, you can convert between various video and audio formats, set sample rates, capture streaming audio/video, and resize videos. It’s slower (by a few seconds, usually, depending on size of your video) than ffprobe but it works every time. But why force ourselves to use the video clock? We'd have to go and alter our video sync code so that the audio and video aren't trying to sync to each other. You may extract audio from the initial video file, match its duration time with the video duration, and then, you encode video and audio files together, resulting no frozen video frames play. video duration, audio codec, bitrate etc) Opening video decoder: [ffmpeg] FFmpeg's Dec 20, 2018 · How to get a video file information using FFmpeg. So you just have to extract the duration information after executed "  Im using GoDaddy as a hosting server and they wont allow the use of FFMPEG ; well at least they wont give SSH So I need to determine the  29 Jan 2015 Inspect Video Orientation using Node & fluent-ffmpeg, ExifTool, or MediaInfo fields that describe the content in various ways, such as encoding, dimensions, duration, etc. It also provides FFmpeg-PHP emulation in pure PHP so you do not need to compile and install the module. This resource is the essential book in the marketplace to help you get up-to-speed with basic and advanced encoding with FFmpeg. It supports the all the video formats supported by ffmpeg like MOV, AVI, MPEG, WMV, and the audio formats MP3 and WMA. Mar 28, 2011 · To get file information from FFmpeg please do the following: 1) Please run the command prompt by going to your Start menu and typing "cmd" in the run prompt (it's a small text box in the Start menu). flv's we either need a special video player which supports this video file format such as VLC Media Player or FLV Player, or get a good video codec pack (which I do not recommend since it eventually messes the whole multimedia subsystem up, not gonna even link to it), or get a ffdshow all-in-one video codec (I recommend it). ffmpeg reads from an arbitrary number o Mar 16, 2017 · 00:01:00: This is the time your trimmed video will start with. In this part 1 of FFmpeg encoding comparisons I look at x264 presets, their speed and output file size. Before we jump on the video repair part, it is imperative to understand FFmpeg, what it is and what we can use it for? What is FFmpeg? FFmpeg is a software project which has libraries and programs for handling video, audio, and rest of the multimedia including streams, published under the GNU Lesser General Public License 2,1+ or GNU General Public License 2+ depending on which options Apr 17, 2013 · There are two main ways to get the length of a video file in C#: Use a Shell object (found in shell32. --vbv-maxrate <integer> (x264)-maxrate <integer> (FFmpeg) Specifies the maximum bitrate at any point in the video. MMC is a GUI version of Mpxplay for Windows 7 with FFmpeg audio&video playing and translucent windows. 062000000 Oct 20, 2012 · Get Duration/length of a video file using FFMpeg Save Tweet Share If u are making a video site, the duration/length of the video file is very impotent factor caz thumbnail generation is totally based on the length of the video . duration must be a time duration specification, see the Time duration section in the ffmpeg-utils(1) manual. This class is a wrapper around the FFmpeg, FLVTools2 and Mencoder programs to allow PHP developers to manipulate and convert video files. Encoding a video takes time but you can speed up the process by forcing a preset though it would degrade the quality of the output video. Cut a part of a video: To extract a part of a video, you need to specify the start time using the -ss option, and the duration using the -t option (use the hh:mm:ss format). You can be more precise than just hours How can I get information about a video with a command-line tool? (e. This won't harm the quality and make the Feb 23, 2012 · FFMPEG & PHP: Get Thumbnails (Screenshots) From Video - Duration: 15:55. While these video files are of perfect quality, most non-FFmpeg-based video players and video editing software (e. I needed a library to perform basic functions such as length, size, etc of a video file (i'm guessing through the metadata or tags) so I chose ffmpeg. Use -h to get full help or, even better, run 'man ffmpeg' It is the same thing as running the ffmpeg command on the console, but this time we make use of python to do the job for us. Video conversion is really important for those who are hosting their own files and not relying on a third party site such as YouTube or Vimeo because you are looking for the most compatible video standards that offer the best quality at May 18, 2020 · FFmpeg is a free and open-source collection of tools for handling multimedia files. However, many of these – including VLC, Cinelerra and Blender – share the same engine beneath their UI – a command-line utility entitled FFMPEG. This project CM-TES gathers various activities around private social network use in the context of massive online learning. position must be a time duration specification, see the Time duration section in the ffmpeg-utils(1) manual. mp4 If you want to fade audio too then add the afade filter: Cut Video By Specifying Start and End Time with FFmpeg. This code works for roughly half the videos I've tested on it but this problem keeps creeping up. If you need to change some parameters of the video, you can input a new size, change the framerate, change the audio sampling…. Amongst lots of other changes, it includes all changes from ffmpeg-mt, libav master of 2015-08-28, libav 11 as of 2015-08-28. If you care to sync the audio speed with the video speed, things get a bit more complicated: Feb 10, 2020 · Q:"I tried to cut the video using the start and end time of the video by using the command, but it is not cutting the video. Is there any other calculations I need to perform to get the correct PTS every time? I wish there was more documentation on this. So I have to store that  5 Jan 2018 Today we will learn How to get the duration of a file using ffmpeg 1. FFMPEG Hosting support requirements for YouTube clone script, includes ffmpeg, ffmpeg-php, flvtool, Libogg, Libvorbis, LAME MP3 Encoder, Mplayer and Mencoder. In addition to user-specified key/value metadata pairs, FFmpeg's FLV muxer also encodes the following metadata fields: 'duration' 'filesize' 'encoder' if video is present in FLV: 'width' 'height' 'videodatarate' 'framerate' 'videocodecid' if audio is present in FLV: 'audiodatarate' 'audiosamplerate' 'audiosamplesize' 'stereo' 'audiocodecid Aug 07, 2020 · FFmpeg supports many video and audio inputs that are accessible to your computer. mov \ -acodec libfaac -ac 2 -ab 64k \ -vcodec libx264 -g 100 -keyint_min 100 \ -x264opts pic-struct:no-scenecut -movflags frag_keyframe \ -b 400k -s 640x480 \ bunny_400k. Our Video Hosting service provides everything you need, including full accessibility to FFmpeg and FFmpeg-php, to get you up and running quickly. Results; Player duration readings : 10:17 The php function above : 2:3:55 Apr 06, 2014 · Like this: from moviepy. To supress a command-line console being shown while the snapshot is taken - and depending on the video file and the computer's performance this can take up to a few seconds - I am using the same method as above to execute the command. Jun 18, 2019 · Now according to Apple’s guidelines, a video on-demand playlist must have the EXT-X-PLAYLIST-TYPE tag set to VOD. wmv 2>&1` if s =~ /Duration: Jan 17, 2019 · FFmpeg preset is the value in which speed the media encode will traverse at, At the slower spectrum you get more quality at the sacrifice of time, more quicker and you get larger file sizes. mp4" PyFFmpeg is a wrapper around FFmpeg's libavcodec, libavformat and libavutil libraries whose main purpose is to provide access to individual frames of video files of various formats and codecs (such as mpg, mp4, mov, avi, flv, mkv, wmf, and webm). mp4" Jan 20, 2018 · When ffmpeg came along nearly 20 years ago, it seemed to be the absolute video toolbox I was looking for. It is the best all-in-one DVD and video conversion software converts DVDs and videos to play on almost any portable device including iPod, iPhone, Zune, PSP, video capable MP3 players, video capable mobile phones, and Pocket P. Since mp3 can't contain a video stream, to extract audio from video and covert it to mp3 it's enough to use (skip adding -vn): ffmpeg -i myvideo. Aug 02, 2020 · pip install python-ffmpeg-video-streaming Alternatively, add the dependency directly to your requirements. To cut based on start and end time from the source video and avoid having to do math, specify the end time as the input option and the start time as the output option. mp4 (or the video might not get I have a use case where I need to dynamically redact parts of an audio file using python. If you want a quick and easy way to extract a clip from a larger video it doesn't get much simplier than using avconv (the new ffmpeg. OpenCV - Originally developed by Intel 's research center, as for me, it is the greatest leap within computer vision and media data analysis. The -t option sets the cut duration to be 10 seconds and the -ss option sets the start point of the video for trimming, in this case at one minute (00:01:00). $ sudo add-apt-repository ppa:jon-severinsson/ffmpeg $ sudo apt-get update $ sudo apt-get install ffmpeg This article describes some basic audio format conversions using ffmpeg utility. It can convert media files, cut or combine video, get video thumbnail, capture screen, create video from images, decode video frames as bitmaps etc. I am using FFMPEG and linux shell script to get the duration of the video Aug 20, 2010 · using(Process ffmpeg = new Process()) { String duration; // soon will hold our video's duration in the form "HH:MM:SS. Get video uploaded path and thumbnail path and pass the same to the function to get the thumbnail image with the name passed to the function and display it. com Aug 01, 2020 · If you already used VLC, then you know a bit ffmpeg: VLC uses ffmpeg to decode as many videos as possible. 2-dev libtheora-dev libtool libva-dev libvdpau-dev libvorbis-dev libxcb1-dev libxcb-shm0-dev libxcb-xfixes0-dev pkg-config texi2html zlib1g-dev sudo apt install -y libavdevice-dev libavfilter-dev libswscale-dev libavcodec-dev libavformat-dev libswresample-dev libavutil-dev sudo apt-get install yasm I'm using ffmpeg to convert a video file to FLV, but now I need to first check the file size and duration of the video before converting it, in order to set some limits. 1 : stereo Input #0, dshow, from 'video=Integrated Camera:audio=Microphone (5- Logitech USB Headset H340)': Duration: N/A, start: 1386931. GitHub is home to over 50 million developers working together to host and review code, manage projects, and build software together. png It provides classes for retrieving information from video and audio files like the duration, frame and sample rate, frame size, etc. 500000, bitrate: 513 kb/s Stream #0:0[0x1e0]: Video: mpeg1video, yuv420p, 768x480 [SAR 1:1 DAR 8:5], 104857 kb/s, 29. To select just the relevant portions of the video, I used the -ss (start/seek position) and -t (time/duration) flags, e. mp4 This simply stream copies (re-muxes) the video so there is no unnecessary re-encoding occurring; therefore the quality is preserved and the whole process is quick. Here are some of the basic video options that you might need frequently while using ffmpeg on various video files. Aug 14, 2013 · If I look at both ffmpeg commands it looks like you want to cut out the part that starts at 00:10. While, there are some FFmpeg errors frequently reported by users, which makes it difficult for FFmpeg to snag the top spot in the industry. Download FFmpeg - A handy command-line utility for converting, streaming or recording video and sound, yet users first need to get used with its commands Aug 09, 2015 · We use ffmpeg‘s segment muxer to segment the video. For example sometimes I may have to remove between timestamps 10 to 15 and other times be Jan 28, 2019 · uploads-ffmpeg-video-converter; results-ffmpeg-video-converter; We can now go ahead and upload our video we want watermarked to the uploads-ffmpeg-video-converter bucket, and expect the processed video to land in the results-ffmpeg-video-converter once completed. Remember you have to specify an ouput file, but in this case we only want to get some information about the input file. Navigate back to a command line window and to the ffmpeg\bin directory and enter the following: ffmpeg -f dshow -i video="screen-capture-recorder" -r 30 -vcodec mpeg4 -vtag xvid -qscale:v 0 bddrun. 440000000 Stream #0:1(eng): Audio: vorbis,  9 Sep 2018 If ffmpeg is not installed on your server and you don't know how to install it, let's do it. Set the bitrate of a video file using FFmpeg Apr 12, 2013 · I have used VirtualDub for this - but I want to automate with ffmpeg when I try ffmpeg -i input. 18 May 2018 I often have long video recordings that I want to split or trim (side note: sometimes people call this If you instead want to specify a fixed duration, you can use: This will extract 1min5sec starting from 1min10sec in the file. Adding the Sync flags can help sync the output and the input video according to the video’s FFmpeg is a free software project that produces libraries and programs for handling multimedia data. 3 is stable and no longer experimental - FFV1: YUVA Using FFMpeg to get video duration : Class 'Pbmedia\LaravelFFMpeg\FFMpegServiceProvider\FFMpeg' not found Posted 1 year ago by farooq Hi, I'm building a web application to upload a video and store it in cloud,. it subtracts the start_time of the earliest starting stream before ingesting into its processing pipeline (unless copyts is set). Jun 02, 2017 · It is possible to get more accurate times , even from VFR sources, by converting to CFR. mp4 May 01, 2013 · Frames can be duplicated and dropped to maintain a constant frame rate and help keep video and audio synchronized. Getting the streams and format of the video file with python is as easy as defining the commands needed for spawning the process with the subprocess module. Just pass the natural cut point offsets to ffmpeg, telling it to pass the encoded A/V through untouched by using the "copy Motivations. Take care to replace PATH_TO_YOUR_VIDEO_FILE - ffmpeg -t option can now be used for inputs, to limit the duration of data read from an input file - incomplete Voxware MetaSound decoder - read EXIF metadata from JPEG - DVB teletext decoder - phase filter ported from libmpcodecs - w3fdif filter - Opus support in Matroska - FFV1 version 1. mov" -vcodec h264 -b:v 10485760 -s 1998x1080 -r 24 -acodec aac -b:a 327680 -ar 96000 "transcoded video. /ffmpeg_temp Here’s a quick tip on how to combine multiple separate videos into a single one, using ffmpeg. // Even on failure, $result will be a  $ffprobe = FFMpeg\FFProbe::create(); $ffprobe ->format('/path/to/video/mp4') // extracts file informations ->get('duration'); // returns the duration property. Nov 25, 2019 · Created in 2000, FFmpeg is a free and open-source collection of tools and libraries that allows users to record, convert, and stream video and audio in a multitude of formats. The result is short and small (~784 kB) video encoded with h264 codec and encapsulated into mp4 container: If the video doesn't include fast action scenes, you may want to lower the frame rate. 15 and later, each executable within the FFmpeg folder needs to be opened before using OpenToonz (this only needs to be done one time, due to security features). I am working on a project where I am looking to extract a video  $result = shell_exec("ffmpeg -i $video -deinterlace -an -ss $half -t $half -r 1 -y - vcodec mjpeg -f mjpeg $thumbnail 2>&1");. First of all, you need to import the package in your code: import ffmpeg_streaming Opening a Resource. Run the following from the project root to test using the demo video (change to The unit of the timestamp is the time_base of the stream you pass the function. 97 tbc [mpeg @ 0x7f896a813600] max The ffmpeg platform allows you to use any video feed with FFmpeg for motion sensors in Home Assistant. * A tool for creating video excerpts that lets me specify a start time and end time in more flexible timestamp formatting, and other things like a simple Aug 11, 2020 · -ss specifies the start time, e. So I tried to install laravel/ FFMpeg  php-ffmpeg get video duration, $ffprobe ->streams($this->videoFile) ->videos() -> first() ->get('duration');. avi That’s useful if you want to do advanced video editing without using video tools: you just have to build images for each frame with your effects and then you can bundle it in a video. Click here to visit  18 Apr 2017 The following is two methods to get the duration either as a colon separated value, or in Get duration of media file from ffmpeg Have you ever wanted to take a YouTube video on the go with you without needing to  The ffmpeg command used to get information of a video is: minor_version : 256 compatible_brands: isom3gp6 Duration: 00:00:41. Jan 19, 2020 · flutter_ffmpeg uses file system paths, it does not know what an assets folder or a project folder is. Is there any available method in I'm generating thumbnails for a videos that are available from s3 and need to minimize traffic. Can convert video/audio files, transcode live streams, extract video thumbnails, apply watermarks to video, screen capture etc - everything that is possible with ffmpeg from the command line. Feb 20, 2020 · It created a 44,100 Kbytes video output, much larger than using FFMpeg in command line (also with the default options) or another GUI frontend software for FFmpeg. I installed the ffmpeg, mencoder, flvtool2,mp4box, and ffmpeg-php on this server to demonstrate how the ffmpeg-php can read the video duration regardless of the file types or codecs. *\), start/\1/g' you can find the duration information in format section, works both for video and audio. In most cases, ffmpeg automatically detects all needed options to read a video or audio stream or file. FFmpeg includes an audio/video codec library used by several other projects, an audio/video container mux and demux library, and the ffmpeg command line program for transcoding multimedia files. ffmpeg takes care of all the hard work of video processing by doing all the decoding, encoding, muxing and demuxing for you. org May 14, 2014 · For this to work, you’ll need FFMPEG and Python on your machine or server already. 前提要安装FFMPEG,windows版本Unix版本 文件地址:支持网络地址http://和本地 The FFmpeg cut video command cuts a part of the video from 1 hour minutes 35 seconds to 1 hour 10 minutes. Jul 06, 2009 · You can try Cucusoft DVD and Video converters suite which includes Cucusoft Ultimate DVD and Video Converter Suite. NET you can see this link for examples of using FFMPEG and finding the duration  20 Feb 2020 A step by step guide to automatically generating time-lapse videos from images using down each step we would need to complete to get to the end result of a time-lapse video. MOOCs yielded an important evolution of formats and uses of video in trainng this evolution originated thoughts on how to propose to project members and contributors an efficient and simple framework for video encoding that best fits their needs. It includes the following library versions: I have a looping blender animation in mp4 format that is 10,000 frames long, but I basically want to make it longer to the point where the changes between frames are imperceptible, but the animation Audiotonic Pro - Audacity with FFmpeg Library license terms Audacity® software is licensed under the terms of GPL v2. 95 tb(r) Aug 27, 2019 · There are a lot of tools to choose from in the video-handling arena, capable of optimizing file sizes. But as I'd like to make it done by a web server which already uses ffmpeg to encode the videos for streaming on the web, it might be great if I could use ffmpeg for adding this BITC as well. The ffmpeg command used to get information of a video is: Ffmpeg –i <inputFileName> I have a video named “ffmpeg_macdonald. 100 [mpeg @ 0x7f896a831000] max_analyze_duration 5000000 reached at 5005000 microseconds Input #0, mpeg, from 'camera. Concatenation of Video using FFmpeg: ===== For concatenation of Video we use following Jun 17, 2020 · FFmpeg. Configuration of this is beyond the scope of this post, but installation through yum or apt-get should be sufficient (or equivalent on a Windows or Mac). Jan 14, 2020 · You can use the -vcodec parameter to specify the encoding format to be used for the output video. From an FFmpeg supported resource Jul 29, 2020 · You should now see a valid video device listed: Cool. Jun 18, 2020 · To fix a WMV video not playing and showing message video too long: In FFmpeg, first convert the video to still images and then still images back to video. wmv 2>&1` if s =~ /Duration: I found a solution! You can get header information of the stream with ffmpeg. I do believe you are looking for something like this: Jan 30, 2018 · FFmpeg is a fantastic open source tool to convert, stream audio and video. First, check that your stream is playable by ffmpeg outside of Home Assistant with (use option -an or -vn to disable video or audio stream): FFmpeg reads this file and creates simple slideshow with defined duration for each file. I think you should be using a video editor or player to find natural cut points just shy of 10 minutes apart. Returns a frame from the movie as an ffmpeg Jul 05, 2007 · Just to say that I’ve changed some part of the script to get 720×576 videos at high bps output (=high quality) Maybe I will automate it so the parameters can be set from command line. Then you'll have all of your individual frames in the same directory as your original video file. Jul 28, 2020 · gentoo glsa 202007 58 ffmpeg multiple vulnerabilities 16 41 23?rss Multiple vulnerabilities have been found in FFmpeg, the worst of which could result in the ar Feb 13, 2020 · Compiling FFmpeg can take significant time on the Raspberry Pi, so be patient. Jan 31, 2013 · FFmpeg is a complete, cross-platform solution to record, convert and stream audio and video. I've seen examples of ffmpeg minterpolate used to convert to higher frame rates, and ffmpeg examples to slow down videos (and increase video duration), but is it possible to do both at once with minterpolate? I'm hoping to get the length to 10 hours, but details about the end frame rate, codecs, etc isn't too important as long as the video FFmpeg 2. So you can't use resources on those folders directly, you need to provide full paths of those resources. png "This approach is combining the best characteristics of both fast and accurate ways of seeking in ffmpeg. mov \ -an -vcodec libx264 -g 100 -keyint_min 100 \ -x264opts pic-struct:no-scenecut -movflags frag_keyframe \ -b 200k -s 320x240 \ bunny_200k. The -t flags takes the duration, not the elapsed time from the beginning of the movie (end-time - start-time = duration = -t). The -i option serves to get the input which in my case is the video file named Тимати – Рентген ( Альбом ’13’)-C9Plztvv8ac. It uses the powerful and reliable ffmpeg program as a backend, and comes preloaded with tons of presets, including rockbox and Ipods/Iphones. x265vfw is a H265/HEVC video encoder/decoder codec for Windows, based on x264vfw and x265 library, usefull with VirtualDub. Bitrate corresponds approximately to that of constant quantizer, but gives better quality overall at little speed cost. Say you have a gif of my ancient, computer illiterate pug, Benji, and you want to convert it to a video format. duration must be a time duration specification, see (ffmpeg-utils)the Time duration section in the ffmpeg-utils(1) manual. config in <appSettings> section <add key ="FFMPEGExePath" value="D:\ffmpeg\bin\ffmpeg. This time, instead of cropping the sides of the image, let's add black bars at the bottom and the top (letterbox) in order to obtain the 4/3 aspect ratio that way. To pull the duration of a video from any machine with FFMPEG and Python installed, run the following script. If you don t want the file to be re-encoded, then copy the streams, as shown below: So if we wanted to output a 640x480 video, with an audio rate of 22050Hz and a video bit rate of 1000Kbps, our command may look like this: ffmpeg -i inputfile. ts extension, but assuming they're some type of video file you can use ffmpeg to identify the duration of a file like so: $ ffmpeg -i some. 342000 How can I get the output in second only without the decimals? I do not mind if ffmpeg or Mediainfo has a better function for this. Firstly, you need to install the "libav-tools" package: $ sudo apt-get install libav-tools Then, install FFMPEG by using PPA: At any rate, I found the following use of ffprobe to get duration, and was hoping that someone here who understands the complexities of using ffmpeg & ffprobe would be kind enough in assist me with finding the other values I need in a more straightforward way than the crazy code I'm finding myself creating to climb through the full results of duration must be a time duration specification, see (ffmpeg-utils)the Time duration section in the ffmpeg-utils(1) manual. Jun 16, 2017 · This video shows you how to convert video files using ffmpeg no matter which format it is in. 17 Dec 2018 Format (container) duration; Stream duration; Get duration by decoding codec_type=video codec_time_base=1/50 codec_tag_string=avc1  10 seconds when video duration is unknown without audio- · linux debian command-line ffmpeg. man ffmpeg (1): ffmpeg is a very fast video and audio converter that can also grab from a live audio/video source. It contains a set of shared audio and video libraries such as libavcodec, libavformat, and libavutil. Some tips: For older ffmpeg versions, if you use -ss after -i, you get more Jan 10, 2017 · Slower Video Speed ffmpeg -i input. I want to use ideally either ffmpeg or mencoder (or something else, but those two I know I have working) to convert Stack Exchange Network Stack Exchange network consists of 176 Q&A communities including Stack Overflow , the largest, most trusted online community for developers to learn, share their knowledge, and build their careers. dll if WMP is installed on your machine), load the file into it and then get the length from the corresponding When it removed, no incorrect time in video exists. avi 20 READ packet FROM video_stream INTO frame 30 IF frame NOT COMPLETE GOTO 20 40 DO SOMETHING WITH frame 50 GOTO 20 Handling multimedia with ffmpeg is pretty much as simple as this program, although some programs might have a very complex "DO SOMETHING" step. Step to get details related to FFMPEG including o ri Apr 08, 2016 · ffmpeg - past duration too large FFmpeg version: 2016-04-07-git-0c94906. Search for: Search for: Ffmpeg split Jul 31, 2020 · FFmpeg is accurate when it comes to cutting videos but you have to understand its method. duration ) If you only need this feature from moviepy, you can make the import faster by changing the first line to: See full list on blog. Best Regards, Hart Jun 30, 2017 · * '-segment_time': this option is used to provide segment time duration in seconds. The last argument passed to ffmpeg is the path to where the segments should be written; it contains a format specifier (%d) similar to those supported by the printf function in C. We can use ffmpeg and basically copy the video to /dev/nullwithout reconverting it and count its frames in the process. Update your system; sudo yum install epel-release  An Object-Oriented library to convert video/audio files with FFmpeg / AVConv. flv - (Get video information with ffmpeg I used an flv in my Input #0, flv, from 'mi-cc-03-bed_and_breakfast. flv': Duration:  4 Nov 2019 This article explains how to use FFmpeg to extract the audio stream from DURATION : 00:04:19. For a 10 second duration video, 1 second fade in in beginning, 1 second fade out in the ending use the fade filter: ffmpeg -i input. Now from the audio file I can get the waveform, is there any way that I can differentiate the music and the voice from the audio file in the waveform and is it a best way to differentiate? Nov 13, 2015 · How to encode and decode video assets with FFMPEG. Get video information with ffprobe  The duration of getting the video in the Vue project The incoming parameter is the video file object, and the js code is as follows: Get the duration of the video via  19 Jan 2017 Hi! https://trac. avi -s 640x480 -f flv -b 1000k -ar 25 Sep 2015 If you want the duration of a particular video or audio stream: ffprobe -v error You can use ffmpeg to get duration by decoding the input: ffmpeg -i input. -c copy copies the first video, audio, and subtitle bitstream from the input to the output file without re-encoding them. Feb 27, 2018 · The other method to use ffmpeg alone is to know what the frame time is and use -ss to seek to the frame and encode: Code: ffmpeg -ss 00:00:00. Each book is a single source-file, but I've noticed that ffmpeg lists all the chapter If you need to change some parameters of the video, you can input a new size, change the framerate, change the audio sampling…. org/wiki/CompilationGuide FFmp FFMPEG provides a lot of features that you can apply to an video like: – get detailed information of the video – record video – convert video to audio – convert video from one format to another – extract audio from video – extract image from video – resize video – crop video – join videos * "Barcodes" for videos, that is, it takes every second converted to a vertical sliver and combined you get an overview of how the average color of the film changes through its duration. 000000, bitrate: 1118 kb/s The problem with all this stuff is that you can end up scanning over the whole file in order to get its precise duration (especially if you want a frame count). Actually, Seeking with FFmpeg recommends using -ss twice before and after -i to get faster and accurate output. The user can use the webcam for the webcam streaming via raspberry by following the above article, the post is showing the process by which the user will do that. Jun 01, 2017 · Jan’s book, “Learn to Produce Video with FFmpeg in 30 Minutes or Less” is a must-have book for anyone new to encoding with FFmpeg or anyone that is an intermediate user of the tool. To add the fade in and fade out effect during start and end of the video file , use the below command $ ffmpeg -y -i bunny. Assuming your file is in a format that YouTube can accept directly, you don't have to reencode to get segments. path, startTime: 0, // default(0) duration: 5, // default(-1) // endTime: -1 // default(-1) );  16 Dec 2015 I'm using ffmpeg to convert various video formats to webm and get the answer you can force chrome to load your video duration and get the  9 Jan 2009 get video duration through shell using ffmpeg on windows s = `ffmpeg -i x:\\dir\file. You can for example just change the video stream and then mux it with the original untouched audio, or use different fades for video and audio, etc. -to and -t are May 06, 2018 · Instead, the following FFmpeg commands create separate audio and video renditions of the file in . Whatever your distribution of choice, you will most certainly find ffmpeg available in your package manager. For example it can be used to check the format of the container used by a multimedia stream and the format and type of each media stream contained in it. Consult the ffmpeg documentation for more info on supported Open a video or audio file and return it as an object. UU" String result; // temp variable holding a string representation of our video's duration StreamReader errorreader; // StringWriter to hold output from ffmpeg // we want to execute the process without opening a shell ffmpeg 3. FFMPEG conversion commands First of all we need to see how to install ffmpeg on a debian based system. On 8/5/2020 9:52 AM, Tom Burrows via ffmpeg-user wrote: I need to get the duration of any video file such that when multiplied with the media's fps value (in this case, either ’tbr’ or ‘fps'), it equals the number of frames in the video. For ease of use, you can use free extensions like Video DownloadHelper available for both Chrome and Firefox to grab the M3U8 file. It can also convert between arbitrary sample rates and resize video on the fly with a high quality polyphase filter. ffprobe gathers information from multimedia streams and prints it in human- and machine-readable fashion. 560000, bitrate: N/A Stream #0:0: Video: rawvideo, bgr24, 640x360, 30 fps, 31 tbr, 10000k tbn Stream #0:1: Audio: pcm_s16le, 44100 Hz, 2 channels, s16, 1411 kb An ffmpeg and SDL Tutorial Part 1 Part 2 Part 3 Part 4 Part 5 Part 6 Part 7 Part 8 End. A GUI of sorts is avspmod and you "see" the preview , and can drag the slider and find the time without the delay or having extra time to re-seek from the beginning. The first being the duration of the first stream (typically video) and the second providing the duration of the second stream (typically audio) DURATION : 00:21:40. Mar 20, 2018 · Could anyone tell me why I get slightly different audio durations reported from the following two commands: ffprobe -show_streams x. View PKGBUILD / View Changes; Download snapshot; Search wiki; Flag package out-of-date double get_video_clock(VideoState *is) { double delta; delta = (av_gettime() - is->video_current_pts_time) / 1000000. View PKGBUILD / View Changes; Download snapshot; Search wiki; Flag package out-of-date Re: [FFmpeg-user] How can I get a duration and fps of any video that corresponds with the number of frames that can be read? Phil Rhodes via ffmpeg-user Wed, 05 Aug 2020 14:53:08 -0700 > AFAICT, no video tool has solved this without running the entire stream. mp3 FFmpeg normally audo-detects the output format from the extension you enter for the output files, so specifying the format/codec is not needed in most cases. ffmpeg get video duration

lyx6 wbfb jose hrel wres szib irx6 9coj slci 65ii 4i0w p66l toeu xyov 7z60